Sign in to follow this  
Followers 0
Ab#*j*t#

Kavi Uddheshichathu (2016) Malayalam Dvdrip 720p X264 Aac 5.1 E-sub ZippyMovieZ ExCluSivE

1 post in this topic

Kavi Uddheshichathu (2016) Malayalam Dvdrip 720p X264 Aac 5.1 E-sub  ZippyMovieZ ExCluSivE

kavi-udheshichathu-review-4.jpg

 

Quote

Format : Matroska
Format version : Version 2
File size : 1.20 GiB
Duration : 2 h 17 min
Overall bit rate : 1 245 kb/s
Video
ID : 1
Format : AVC
Format/Info : Advanced Video Codec
Format profile : [email protected]
Format settings, CABAC : Yes
Format settings, ReFrames : 4 frames
Codec ID : V_MPEG4/ISO/AVC
Duration : 2 h 17 min
Bit rate : 987 kb/s
Width : 1 280 pixels
Height : 544 pixels
Display aspect ratio : 2.35:1
Frame rate mode : Constant
Frame rate : 23.976 (24000/1001) FPS
Color space : YUV
Chroma subsampling : 4:2:0
Bit depth : 8 bits
Scan type : Progressive
Bits/(Pixel*Frame) : 0.059
Stream size : 971 MiB (79%)
Audio
ID : 2
Format : AAC
Format/Info : Advanced Audio Codec
Format profile : LC
Codec ID : A_AAC
Duration : 2 h 17 min
Bit rate : 256 kb/s
Channel(s) : 6 channels
Channel positions : Front: L C R, Side: L R, LFE
Sampling rate : 48.0 kHz
Frame rate : 46.875 FPS (1024 spf)
Compression mode : Lossy
Delay relative to video : 9 ms
Stream size : 251 MiB (21%)
Default : Yes
Forced : No

 

Quote

~Extreme Seeding Started~

Please click 'Thanks' as a token of appreciation of our effort.

QnC2C27.png

[ZippyMovieZ.CH] Kavi Uddheshichathu (2016) Malayalam DVDRip 720p x264 AAC 5.1 E-Sub.torrent

Magnet Link

Share this post


Link to post
Share on other sites

Create an account or sign in to comment

You need to be a member in order to leave a comment

Create an account

Sign up for a new account in our community. It's easy!


Register a new account

Sign in

Already have an account? Sign in here.


Sign In Now
Sign in to follow this  
Followers 0