Sign in to follow this  
Followers 0
Th3 Gh0S7

Dear Zindagi (2016) Download Hindi Movie x264 DVDRIP AC3 5.1 ESub 1.4GB - DDR

1 post in this topic

Dear Zindagi (2016) Download Hindi Movie x264 DVDRIP AC3 5.1 ESub 1.4GB - DDR

ddr_logo.png
05af2c08cb52bb0f426657cbbbc393fa.jpg

1/3 DvDrip x264

AC3 5.1 Audio

English Subtitle(s)

ScreenShots
51c3debafed3849db12693c28a71571c.th.png 90a02c75b792bb8a0470a597bbefaecd.th.png a4746c3d4524da8afedf75e8334c9831.th.png ba15ac507c5a373f923c164b6be23b80.th.png 84c01d42d41a3298401a994cd8eac408.th.png 79bdcf07f84ba0a7195de3dcd5278de4.th.png 220e6d546a4b2d91b148ed540a158264.th.png 0912c13101b6f9034e332a872a4c645d.th.png f36a9039ee3f9a6206edb1db0983ced5.th.png df25eb9d18c3294a4fd2401a5310e4f4.th.png b370e9a50e891323ee4194f3b78c18c4.th.png 0b64a7f5b476ca3e9f6581897eef4954.th.png  

 

Quote

Specs:
Source: DVD9 @ Hideman08

Format : Matroska
File size : 1.47 GiB
Duration : 2 h 30 min
Overall bit rate : 1 405 kb/s


Video
Format : AVC
Format/Info : Advanced Video Codec
Format profile : [email protected]
Format settings, CABAC : Yes
Format settings, ReFrames : 16 frames
Codec ID : V_MPEG4/ISO/AVC
Duration : 2 h 30 min
Bit rate : 1 137 kb/s
Width : 720 pixels
Height : 304 pixels
Display aspect ratio : 2.35:1
Frame rate mode : Constant
Frame rate : 23.976 (24000/1001) FPS
Color space : YUV
Chroma subsampling : 4:2:0
Bit depth : 8 bits
Scan type : Progressive
Bits/(Pixel*Frame) : 0.217
Stream size : 1.20 GiB (82%)
Default : Yes
Forced : No
Color range : Limited
Color primaries : BT.601 NTSC
Transfer characteristics : BT.470 System B, BT.470 System G
Matrix coefficients : BT.601

Audio
Format : AC-3
Format/Info : Audio Coding 3
Mode extension : CM (complete main)
Format settings, Endianness : Big
Codec ID : A_AC3
Duration : 2 h 30 min
Bit rate mode : Constant
Bit rate : 256 kb/s
Channel(s) : 6 channels
Channel positions : Front: L C R, Side: L R, LFE
Sampling rate : 48.0 kHz
Frame rate : 31.250 FPS (1536 spf)
Compression mode : Lossy
Stream size : 275 MiB (18%)
Language : Hindi
Default : Yes
Forced : No

Chapters = YES

~Extreme Seeding Started~

Please click 'Thanks' as a token of appreciation of our effort.

QnC2C27.png.

Dear Zindagi (2016) Hindi x264 DVDRIP AC3 5.1 ESub - DDR.torrent

Magnet Link

 

Share this post


Link to post
Share on other sites
Download Now

Create an account or sign in to comment

You need to be a member in order to leave a comment

Create an account

Sign up for a new account in our community. It's easy!


Register a new account

Sign in

Already have an account? Sign in here.


Sign In Now
Sign in to follow this  
Followers 0