Search the Community

Showing results for tags 'esubs'.

  • Search By Tags

    Type tags separated by commas.
  • Search By Author

Content Type


Forums

  • General Lounge
    • Announcements and Updates
    • Member Introductions
    • Help & FAQ
    • Post your Movie Requests
    • Ethical Hacking Tricks and Internet Tricks
  • Free Online Movies
    • HollyWood Movies
    • BollyWood Movies
    • Malayalam Movies
    • Tamil Movies
    • Telugu Movies
    • Other Movies
  • TV Shows
    • English TV Shows
  • Ebooks
    • Tips ,Tutorials and E-Books
  • Adult Section
    • XXX HD Videos
    • XXX Adult Movies
    • XXX VIDEOS
    • XXX PICTURES
    • XXX STORIES
    • XXX Comics and Magazine
  • Music Database
    • English Albums
    • English Collections
  • Premium Accounts And Premium Browser
    • Premium Account And Premium Browser
    • Free 18+ Site Premium Accounts
  • Games & SoftWare
    • PC Games
    • PC Softwares
    • Mac OSX Applications
  • Mobile Zone
    • Android Applications
    • Android Games
    • Android Themes / Live Wallpapers
    • Iphone Applications
  • Gallery
    • Actress Gallery
    • HD Wallpapers
  • WebMaster Source
    • Vbulletin
    • Wordpress
    • Invision Power Board
    • PHP / HTML scripts

Categories

  • Records

Calendars

  • Community Calendar

Categories

  • Files

Categories

  • Videos
  • Movies

Found 35 results

  1. Format : AVC Format/Info : Advanced Video Codec Format profile : [email protected] Format settings, CABAC : Yes Format settings, ReFrames : 8 frames Codec ID : V_MPEG4/ISO/AVC Duration : 1 h 58 min Bit rate : 1 079 kb/s Width : 1 280 pixels Height : 536 pixels Display aspect ratio : 2.40:1 Original display aspect rat : 2.40:1 Frame rate mode : Constant Frame rate : 23.976 (24000/1001) FPS Color space : YUV Chroma subsampling : 4:2:0 Bit depth : 8 bits Scan type : Progressive Audio #1 ID : 2 Format : AAC Format/Info : Advanced Audio Codec Format profile : HE-AAC / LC Codec ID : A_AAC Duration : 1 h 58 min Bit rate : 128 kb/s Channel(s) : 2 channels Channel positions : Front: L R Sampling rate : 48.0 kHz / 24.0 kHz Frame rate : 23.438 FPS (1024 spf) Compression mode : Lossy Language : Hindi (TITANS Thanks) Default : Yes Forced : No Audio #2 ID : 3 Format : AAC Format/Info : Advanced Audio Codec Format profile : HE-AAC / LC Codec ID : A_AAC Duration : 1 h 58 min Bit rate : 121 kb/s Channel(s) : 6 channels Channel positions : Front: L C R, Side: L R, LFE Sampling rate : 48.0 kHz / 24.0 kHz Frame rate : 23.438 FPS (1024 spf) Compression mode : Lossy Language : English Default : No Forced : No Text ID : 4 Format : UTF-8 Codec ID : S_TEXT/UTF8 Codec ID/Info : UTF-8 Plain Text Duration : 1 h 51 min Bit rate : 49 b/s Count of elements : 1416 Default : Yes Forced : No [Source: 1080p BluRay] Sample Including In Torrent Jack Reacher Never Go Back (2016) 720p BluRay x264 [Dual-Audio][Hindi Org 2.0 - English 5.1] ESubs - Downloadhub.torrent
  2. Sample http://rapidgator.net/file/01f8afd6b3a5e6cdebd0340de1aab8f3/Shor_Se_Shuruaat_(2016)_-_WebRip_-_X264_-_ESubs_-_1CD_[Team_Jaffa].mkv.html http://nitroflare.com/view/905CBFA7A7B454B/Shor_Se_Shuruaat_(2016)_-_WebRip_-_X264_-_ESubs_-_1CD__Team_Jaffa_.mkv https://openload.co/f/GKtSzBN_r-s/Shor_Se_Shuruaat_%282016%29_-_WebRip_-_X264_-_ESubs_-_1CD_%5BTeam_Jaffa%5D.mkv
  3. Sample http://rapidgator.net/file/b908b859f5589c0f13688b7140b0c75c/Wajah_Tum_Ho_(2016)_-_DvdRip_-_XviD_-_5.1CH_-_ESubs_-_2CD_[Team_Jaffa].avi.html Subs: http://rapidgator.net/file/a8b92dabf3517de8d9171b3dbde16193/Wajah_Tum_Ho_(2016)_-_DvdRip_-_XviD_-_5.1CH_-_ESubs_-_2CD_[Team_Jaffa].rar.html http://nitroflare.com/view/BA29D68B8DF1DE1/Wajah_Tum_Ho_(2016)_-_DvdRip_-_XviD_-_5.1CH_-_ESubs_-_2CD__Team_Jaffa_.avi Subs: http://nitroflare.com/view/571FB01EA2641C7/Wajah_Tum_Ho_(2016)_-_DvdRip_-_XviD_-_5.1CH_-_ESubs_-_2CD__Team_Jaffa_.rar https://openload.co/f/CMzac3eAqU0/Wajah_Tum_Ho_%282016%29_-_DvdRip_-_XviD_-_5.1CH_-_ESubs_-_2CD_%5BTeam_Jaffa%5D.avi Subs: https://openload.co/f/BBiRmqMHEg4/Wajah_Tum_Ho_%282016%29_-_DvdRip_-_XviD_-_5.1CH_-_ESubs_-_2CD_%5BTeam_Jaffa%5D.rar
  4. Ben-Hur (2016) Malayalam 720p BDRip x264 Mp3 950MB ESubs ZippyMovieZ ExCluSivE ~Extreme Seeding Started~Please click 'Thanks' as a token of appreciation of our effort. [ZippyMovieZ.CH] Ben-Hur (2016) Malayalam 720p BDRip x264 Mp3 950MB ESubs ZippyMovieZ ExCluSivE.torrent Magnet Link
  5. Sample http://rapidgator.net/file/d170746de296d322a5254a89cd30fe75/Murugavel_(2016)_-_WebRip_-_X264_-_ESubs_-_1CD_[Team_Jaffa].mp4.html http://nitroflare.com/view/DC5BF634C7F0DEA/Murugavel_(2016)_-_WebRip_-_X264_-_ESubs_-_1CD__Team_Jaffa_.mp4 https://openload.co/f/7ZwAFU9Ib7Y/Murugavel_%282016%29_-_WebRip_-_X264_-_ESubs_-_1CD_%5BTeam_Jaffa%5D.mp4
  6. Sample http://rapidgator.net/file/9c1736ed95de768693f4faa7325b1c96/24_(2016)_-_Telugu_-_WebRip_-_X265_-_HEVC_-_ESubs_-_720P_-_1.3GB_[Team_Jaffa].mkv.html http://nitroflare.com/view/A912930B9659134/24_(2016)_-_Telugu_-_WebRip_-_X265_-_HEVC_-_ESubs_-_720P_-_1.3GB__Team_Jaffa_.mkv https://openload.co/f/9QvjjKO8c4U/24_%282016%29_-_Telugu_-_WebRip_-_X265_-_HEVC_-_ESubs_-_720P_-_1.3GB_%5BTeam_Jaffa%5D.mk
  7. Sample http://rapidgator.net/file/6e8eb9ccca891cf654ce9e7a19221b0a/Akira_(2016)_-_BDRip_-_X264_-_DTS_-_ESubs_-_1080P_-_3.3GB_[Team_Jaffa].mkv.html http://nitroflare.com/view/C6CEB2A1378F16F/Akira_(2016)_-_BDRip_-_X264_-_DTS_-_ESubs_-_1080P_-_3.3GB__Team_Jaffa_.mkv
  8. Sample http://rapidgator.net/file/7071e6ce0e416bbe9598f413ea4e0a66/24_(2016)_-_Telugu_-_WebRip_-_XviD_-_ESubs_-_2CD_[Team_Jaffa].avi.html Subs: http://rapidgator.net/file/2ac12fdbdbde3be9e1dfe380cf019737/24_(2016)_-_Telugu_-_WebRip_-_XviD_-_ESubs_-_2CD_[Team_Jaffa].srt.html http://nitroflare.com/view/DAC99C88819A24E/24_(2016)_-_Telugu_-_WebRip_-_XviD_-_ESubs_-_2CD__Team_Jaffa_.avi Subs: http://nitroflare.com/view/3164242A795F44E/24_(2016)_-_Telugu_-_WebRip_-_XviD_-_ESubs_-_2CD__Team_Jaffa_.srt https://openload.co/f/4RrbgRRvy7o/24_%282016%29_-_Telugu_-_WebRip_-_XviD_-_ESubs_-_2CD_%5BTeam_Jaffa%5D.avi Subs: https://openload.co/f/ZTqkF4R8xdk/24_%282016%29_-_Telugu_-_WebRip_-_XviD_-_ESubs_-_2CD_%5BTeam_Jaffa%5D.srt
  9. Format : AVC Format/Info : Advanced Video Codec Format profile : [email protected] Format settings, CABAC : Yes Format settings, ReFrames : 8 frames Codec ID : V_MPEG4/ISO/AVC Duration : 2 h 29 min Bit rate : 1 059 kb/s Width : 1 280 pixels Height : 544 pixels Display aspect ratio : 2.35:1 Frame rate mode : Constant Frame rate : 24.000 FPS Color space : YUV Chroma subsampling : 4:2:0 Bit depth : 8 bits Scan type : Progressive Audio ID : 2 Format : AAC Format/Info : Advanced Audio Codec Format profile : HE-AAC / LC Codec ID : A_AAC Duration : 2 h 29 min Bit rate : 192 kb/s Channel(s) : 6 channels Channel positions : Front: L C R, Side: L R, LFE Sampling rate : 48.0 kHz / 24.0 kHz Frame rate : 23.438 FPS (1024 spf) Compression mode : Lossy Language : Hindi Default : Yes Forced : Yes Text ID : 3 Format : UTF-8 Codec ID : S_TEXT/UTF8 Codec ID/Info : UTF-8 Plain Text Duration : 2 h 27 min Bit rate : 63 b/s Default : Yes Forced : No [Source: 1080p @ DDR] Sample Including In Torrent Dear Zindagi (2016) Hindi 720p HDRip x264 AAC 5.1 ESubs - Downloadhub.torrent
  10. Sample http://rapidgator.net/file/997e450fb6291d9ddc9510e5f0a7f3cd/Akira_(2016)_-_BDRip_-_X264_-_DTS_-_ESubs_-_720P_-_2.4GB_[Team_Jaffa].mkv.html http://nitroflare.com/view/7E5075E06FA70CE/Akira_(2016)_-_BDRip_-_X264_-_DTS_-_ESubs_-_720P_-_2.4GB__Team_Jaffa_.mkv
  11. Sample http://rapidgator.net/file/997e450fb6291d9ddc9510e5f0a7f3cd/Akira_(2016)_-_BDRip_-_X264_-_DTS_-_ESubs_-_720P_-_2.4GB_[Team_Jaffa].mkv.html http://nitroflare.com/view/7E5075E06FA70CE/Akira_(2016)_-_BDRip_-_X264_-_DTS_-_ESubs_-_720P_-_2.4GB__Team_Jaffa_.mkv
  12. Sample http://rapidgator.net/file/cdf09c6942ee25a848c81e3a7065fc59/24_(2016)_-_Telugu_-_WebRip_-_X264_-_ESubs_-_1CD_[Team_Jaffa].mkv.html http://nitroflare.com/view/2D173EDFE6B9648/24_(2016)_-_Telugu_-_WebRip_-_X264_-_ESubs_-_1CD__Team_Jaffa_.mkv https://openload.co/f/cunkSrRSNys/24_%282016%29_-_Telugu_-_WebRip_-_X264_-_ESubs_-_1CD_%5BTeam_Jaffa%5D.mkv
  13. General Complete name : Dear.Zindagi.2016.1080p.WEB-DL.H264.AC3.ESub-DDR.mkv Format : Matroska Format version : Version 4 / Version 2 File size : 5.29 GiB Duration : 2 h 29 min Overall bit rate : 5 071 kb/s Encoded date : UTC 2017-01-15 20:10:10 Writing application : mkvmerge v9.7.1 ('Pandemonium') 64bit Writing library : libebml v1.3.4 + libmatroska v1.4.5 Video ID : 1 Format : AVC Format/Info : Advanced Video Codec Format profile : [email protected] Format settings, CABAC : Yes Format settings, ReFrames : 5 frames Codec ID : V_MPEG4/ISO/AVC Duration : 2 h 29 min Bit rate : 4 560 kb/s Width : 1 920 pixels Height : 816 pixels Display aspect ratio : 2.35:1 Frame rate mode : Constant Frame rate : 24.000 FPS Color space : YUV Chroma subsampling : 4:2:0 Bit depth : 8 bits Scan type : Progressive Bits/(Pixel*Frame) : 0.121 Stream size : 4.75 GiB (90%) Title : DDR Default : Yes Forced : No Color range : Limited Color primaries : BT.709 Transfer characteristics : BT.709 Matrix coefficients : BT.709 Audio #1 ID : 2 Format : AC-3 Format/Info : Audio Coding 3 Mode extension : CM (complete main) Format settings, Endianness : Big Codec ID : A_AC3 Duration : 2 h 29 min Bit rate mode : Constant Bit rate : 384 kb/s Channel(s) : 6 channels Channel positions : Front: L C R, Side: L R, LFE Sampling rate : 48.0 kHz Frame rate : 31.250 FPS (1536 spf) Bit depth : 16 bits Compression mode : Lossy Stream size : 410 MiB (8%) Title : DDR Language : Hindi Default : Yes Forced : No Audio #2 ID : 3 Format : AAC Format/Info : Advanced Audio Codec Format profile : LC Codec ID : A_AAC Duration : 2 h 29 min Bit rate : 124 kb/s Channel(s) : 2 channels Channel positions : Front: L R Sampling rate : 48.0 kHz Frame rate : 46.875 FPS (1024 spf) Compression mode : Lossy Stream size : 133 MiB (2%) Title : DDR Language : Hindi Default : No Forced : No Text ID : 4 Format : UTF-8 Codec ID : S_TEXT/UTF8 Codec ID/Info : UTF-8 Plain Text Duration : 2 h 27 min Bit rate : 63 b/s Count of elements : 2148 Stream size : 68.9 KiB (0%) Title : DDR Language : English Default : Yes Forced : No http://nitroflare.com/view/746A5BEDA09645A/Dear.Zindagi.2016.1080p.WEB-DL.H264.AC3.ESub-DDR.mkv Subs: http://nitroflare.com/view/04943DE6B6695FD/Dear.Zindagi.2016.1080p.WEB-DL.H264.AC3.ESub-DDR.srt
  14. Format : AVC Format/Info : Advanced Video Codec Format profile : [email protected] Format settings, CABAC : Yes Format settings, ReFrames : 8 frames Codec ID : V_MPEG4/ISO/AVC Duration : 1 h 30 min Bit rate : 1 148 kb/s Width : 1 280 pixels Height : 536 pixels Display aspect ratio : 2.40:1 Frame rate mode : Constant Frame rate : 23.976 (24000/1001) FPS Color space : YUV Chroma subsampling : 4:2:0 Bit depth : 8 bits Scan type : Progressive Audio #1 ID : 2 Format : AAC Format/Info : Advanced Audio Codec Format profile : HE-AACv2 / HE-AAC / LC Codec ID : A_AAC Duration : 1 h 30 min Bit rate : 192 kb/s Channel(s) : 6 channels Channel(s)_Original : 2 channels / 16 channels / 16 channels Channel positions : Front: L R / Front: 7, Side: 5, Back: L R, LFE= 2 / Front: 7, Side: 5, Back: L R, LFE= 2 Sampling rate : 48.0 kHz / 48.0 kHz / 24.0 kHz Frame rate : 23.438 FPS (1024 spf) Compression mode : Lossy Language : Hindi (PyZ Thanks) Default : Yes Forced : No Audio #2 ID : 3 Format : AAC Format/Info : Advanced Audio Codec Format profile : LC Codec ID : A_AAC Duration : 1 h 30 min Bit rate : 125 kb/s Channel(s) : 6 channels Channel positions : Front: L C R, Side: L R, LFE Sampling rate : 48.0 kHz Frame rate : 46.875 FPS (1024 spf) Compression mode : Lossy Language : English Default : No Forced : No Text ID : 4 Format : UTF-8 Codec ID : S_TEXT/UTF8 Codec ID/Info : UTF-8 Plain Text Duration : 1 h 30 min Bit rate : 78 b/s Default : Yes Forced : No Menu 00:00:00.000 : en:00:00:00.000 00:02:38.700 : en:00:02:38.700 00:06:27.721 : en:00:06:27.721 00:11:03.037 : en:00:11:03.037 00:13:56.210 : en:00:13:56.210 00:17:02.313 : en:00:17:02.313 00:21:10.644 : en:00:21:10.644 00:24:33.013 : en:00:24:33.013 00:29:21.051 : en:00:29:21.051 00:33:33.970 : en:00:33:33.970 00:36:16.841 : en:00:36:16.841 00:41:43.292 : en:00:41:43.292 00:45:22.345 : en:00:45:22.345 00:49:35.514 : en:00:49:35.514 00:53:29.665 : en:00:53:29.665 00:56:27.342 : en:00:56:27.342 01:02:00.216 : en:01:02:00.216 01:05:18.039 : en:01:05:18.039 01:09:01.429 : en:01:09:01.429 01:11:59.106 : en:01:11:59.106 01:14:05.566 : en:01:14:05.566 01:17:08.332 : en:01:17:08.332 01:19:49.785 : en:01:19:49.785 01:22:34.825 : en:01:22:34.825 [Source: 1080p BluRay] Sample Including In Torrent Absolutely Fabulous The Movie (2016) 720p BluRay x264 [Dual-Audio][Hindi 5.1 - English 5.1] ESubs - Downloadhub.torrent
  15. Crayons 2016 Malayalam DVDRip 700MB x264 AAC Esubs ZippyMovieZ ~Extreme Seeding Started~Please click 'Thanks' as a token of appreciation of our effort. [ZippyMovieZ.CH] Crayons 2016 Malayalam DVDRip 700MB x264 AAC Esubs ZippyMovieZ.torrent Magnet Link
  16. Format : AVC Format/Info : Advanced Video Codec Format profile : [email protected] Format settings, CABAC : Yes Format settings, ReFrames : 8 frames Codec ID : V_MPEG4/ISO/AVC Duration : 1 h 42 min Bit rate : 1 054 kb/s Width : 1 280 pixels Height : 536 pixels Display aspect ratio : 2.40:1 Frame rate mode : Constant Frame rate : 23.976 (24000/1001) FPS Color space : YUV Chroma subsampling : 4:2:0 Bit depth : 8 bits Scan type : Progressive Audio #1 ID : 2 Format : AAC Format/Info : Advanced Audio Codec Format profile : HE-AAC / LC Codec ID : A_AAC Duration : 1 h 42 min Bit rate : 188 kb/s Channel(s) : 6 channels Channel positions : Front: L C R, Side: L R, LFE Sampling rate : 48.0 kHz / 24.0 kHz Frame rate : 23.438 FPS (1024 spf) Compression mode : Lossy Language : Hindi Default : Yes Forced : No Audio #2 ID : 3 Format : AAC Format/Info : Advanced Audio Codec Format profile : LC Codec ID : A_AAC Duration : 1 h 42 min Bit rate : 125 kb/s Channel(s) : 6 channels Channel positions : Front: L C R, Side: L R, LFE Sampling rate : 48.0 kHz Frame rate : 46.875 FPS (1024 spf) Compression mode : Lossy Language : English Default : No Forced : No Text ID : 4 Format : UTF-8 Codec ID : S_TEXT/UTF8 Codec ID/Info : UTF-8 Plain Text Duration : 1 h 32 min Bit rate : 47 b/s Count of elements : 1239 Default : Yes Forced : No Menu 00:00:00.000 : en:00:00:00.000 00:03:20.575 : en:00:03:20.575 00:07:34.704 : en:00:07:34.704 00:12:32.961 : en:00:12:32.961 00:17:44.021 : en:00:17:44.021 00:22:04.865 : en:00:22:04.865 00:26:22.456 : en:00:26:22.456 00:32:35.620 : en:00:32:35.620 00:37:22.115 : en:00:37:22.115 00:42:57.575 : en:00:42:57.575 00:48:12.723 : en:00:48:12.723 00:51:11.735 : en:00:51:11.735 00:57:13.013 : en:00:57:13.013 01:03:20.380 : en:01:03:20.380 01:08:52.337 : en:01:08:52.337 01:13:04.672 : en:01:13:04.672 01:20:24.695 : en:01:20:24.695 01:24:46.331 : en:01:24:46.331 01:29:10.136 : en:01:29:10.136 01:33:13.630 : en:01:33:13.630 [Source: 1080p @ GPSOT] Sample Including In Torrent Kubo and the Two Strings (2016) 720p BluRay x264 [Dual-Audio][Hindi 5.1 - English 5.1] ESubs - Downloadhub.torrent
  17. Mechanic Resurrection (2016) 720p BluRay Dual Audio [English+Hindi ORG] ESubs HEVC 500MB-DLWarez Single Download Link Language: English Size: 518371725 bytes (494.36 MiB), duration: 01:34:36, avg.bitrate: 731 kb/s Audio: aac, 48000 Hz, stereo (hin) Audio: aac, 48000 Hz, stereo (eng) Video: x265, 1280x536, 23.98 fps(r) Genre: Action, Crime, Thriller http://www.imdb.com/title/tt3522806/ Arthur Bishop thought he had put his murderous past behind him when his most formidable foe kidnaps the love of his life. Now he is forced to travel the globe to complete three impossible assassinations, and do what he does best, make them look like accidents. ScreenShot http://uploadgig.com/file/download/a4a2eCB8bD50b8c7/Mechanic.Resurrection.2016.720p.BluRay.Dual.Audio.English.Hindi.ORG.ESubs.HEVC.500MB.DLWarez.mkv
  18. Mechanic Resurrection (2016) 720p BluRay Dual Audio [Eng+Hin ORG] ESubs 950MB-DLWarez Single Download Link Language: English Size: 995682766 bytes (949.56 MiB), duration: 01:34:36, avg.bitrate: 1403 kb/s Audio: aac, 48000 Hz, 5:1 (hin) Audio: aac, 48000 Hz, 5:1 (eng) Video: h264, yuv420p, 1280x536, 25.00 fps(r) Genre: Action, Crime, Thriller http://www.imdb.com/title/tt3522806/ Arthur Bishop thought he had put his murderous past behind him when his most formidable foe kidnaps the love of his life. Now he is forced to travel the globe to complete three impossible assassinations, and do what he does best, make them look like accidents. ScreenShot http://uploadgig.com/file/download/d460F7d455538Ee1/Mechanic.Resurrection.2016.720p.BluRay.Dual.Audio.ORG.Hindi.English.ESubs.950MB.DLWarez.mkv
  19. General Complete name : Wajah.Tum.Ho.2016.1080p.WEB-DL.H263.DD5.1.ESub-DDR.mkv Format : Matroska Format version : Version 4 / Version 2 File size : 4.79 GiB Duration : 2 h 10 min Overall bit rate : 5 247 kb/s Encoded date : UTC 2017-01-12 08:33:25 Writing application : mkvmerge v9.7.1 ('Pandemonium') 64bit Writing library : libebml v1.3.4 + libmatroska v1.4.5 Video ID : 1 Format : MPEG-4 Visual Format profile : [email protected] Format settings, BVOP : No Format settings, QPel : No Format settings, GMC : No warppoints Format settings, Matrix : Default (H.263) Codec ID : V_MPEG4/ISO/ASP Codec ID/Info : Advanced Simple Profile Duration : 2 h 10 min Bit rate : 4 604 kb/s Width : 1 916 pixels Height : 816 pixels Display aspect ratio : 2.35:1 Frame rate mode : Constant Frame rate : 25.000 FPS Color space : YUV Chroma subsampling : 4:2:0 Bit depth : 8 bits Scan type : Progressive Compression mode : Lossy Bits/(Pixel*Frame) : 0.118 Stream size : 4.20 GiB (88%) Writing library : Lavc55.52.102 Default : Yes Forced : No Audio ID : 2 Format : AC-3 Format/Info : Audio Coding 3 Mode extension : CM (complete main) Format settings, Endianness : Big Codec ID : A_AC3 Duration : 2 h 10 min Bit rate mode : Constant Bit rate : 640 kb/s Channel(s) : 6 channels Channel positions : Front: L C R, Side: L R, LFE Sampling rate : 48.0 kHz Frame rate : 31.250 FPS (1536 spf) Bit depth : 16 bits Compression mode : Lossy Delay relative to video : -21 ms Stream size : 598 MiB (12%) Default : Yes Forced : No Text ID : 3 Format : UTF-8 Codec ID : S_TEXT/UTF8 Codec ID/Info : UTF-8 Plain Text Duration : 2 h 7 min Bit rate : 49 b/s Count of elements : 1470 Stream size : 46.3 KiB (0%) Default : Yes Forced : No http://rapidgator.net/file/c4312733e8fce1d750db74f5bb8a0416/Wajah.Tum.Ho.2016.1080p.WEB-DL.H263.DD5.1.ESub-DDR.mkv.html Subs: http://rapidgator.net/file/f77b8d2ba89a5927cf6786c2ea9b79b2/Wajah.Tum.Ho.2016.1080p.WEB-DL.H263.DD5.1.ESub-DDR.srt.html http://nitroflare.com/view/8C77F8186778A56/Wajah.Tum.Ho.2016.1080p.WEB-DL.H263.DD5.1.ESub-DDR.mkv Subs: http://nitroflare.com/view/CA3F2969BD9BE70/Wajah.Tum.Ho.2016.1080p.WEB-DL.H263.DD5.1.ESub-DDR.srt
  20. Sample http://rapidgator.net/file/383906c4e532141ef32b323989063f90/Akira_(2016)_-_BDRip_-_X264_-_5.1CH_-_ESubs_-_1080P_-_2.1GB_[Team_Jaffa].mkv.html http://nitroflare.com/view/18C0E0BF0BE2A15/Akira_(2016)_-_BDRip_-_X264_-_5.1CH_-_ESubs_-_1080P_-_2.1GB__Team_Jaffa_.mkv
  21. General Complete name : Wajah.Tum.Ho.2016.720p.WEB-DL.H264.DD5.1.ESub-DDR.mkv Format : Matroska Format version : Version 4 / Version 2 File size : 5.09 GiB Duration : 2 h 10 min Overall bit rate mode : Variable Overall bit rate : 5 586 kb/s Encoded date : UTC 2017-01-11 21:07:35 Writing application : mkvmerge v9.6.0 ('Slave To Your Mind') 64bit Writing library : libebml v1.3.4 + libmatroska v1.4.5 Video ID : 1 Format : AVC Format/Info : Advanced Video Codec Format profile : [email protected] Format settings, CABAC : Yes Format settings, ReFrames : 8 frames Codec ID : V_MPEG4/ISO/AVC Duration : 2 h 10 min Bit rate mode : Variable Bit rate : 5 200 kb/s Maximum bit rate : 24.0 Mb/s Width : 1 364 pixels Height : 580 pixels Display aspect ratio : 2.35:1 Frame rate mode : Constant Frame rate : 25.000 FPS Color space : YUV Chroma subsampling : 4:2:0 Bit depth : 8 bits Scan type : Progressive Bits/(Pixel*Frame) : 0.263 Stream size : 4.74 GiB (93%) Language : English Default : Yes Forced : No Color range : Limited Color primaries : BT.709 Transfer characteristics : BT.709 Matrix coefficients : BT.709 Audio ID : 2 Format : AC-3 Format/Info : Audio Coding 3 Mode extension : CM (complete main) Format settings, Endianness : Big Codec ID : A_AC3 Duration : 2 h 10 min Bit rate mode : Constant Bit rate : 384 kb/s Channel(s) : 6 channels Channel positions : Front: L C R, Side: L R, LFE Sampling rate : 48.0 kHz Frame rate : 31.250 FPS (1536 spf) Bit depth : 16 bits Compression mode : Lossy Delay relative to video : 20 ms Stream size : 359 MiB (7%) Language : Hindi Default : Yes Forced : No Text ID : 3 Format : UTF-8 Codec ID : S_TEXT/UTF8 Codec ID/Info : UTF-8 Plain Text Duration : 2 h 7 min Bit rate : 49 b/s Count of elements : 1470 Stream size : 46.3 KiB (0%) Language : English Default : Yes Forced : No http://nitroflare.com/view/7D1D29A38887645/Wajah.Tum.Ho.2016.720p.WEB-DL.H264.DD5.1.ESub-DDR.mkv
  22. Sample http://rapidgator.net/file/38ce57b53913faf5171735563822953f/Chennai_600028_II_(2016)_-_WebRip_-_X264_-_ESubs_-_1CD_[Team_Jaffa].mkv.html http://nitroflare.com/view/FBE02F283A2E934/Chennai_600028_II_(2016)_-_WebRip_-_X264_-_ESubs_-_1CD__Team_Jaffa_.mkv https://openload.co/f/u0Cd1zr0CNg/Chennai_600028_II_%282016%29_-_WebRip_-_X264_-_ESubs_-_1CD_%5BTeam_Jaffa%5D.mkv
  23. Format : AVC Format/Info : Advanced Video Codec Format profile : [email protected] Format settings, CABAC : Yes Format settings, ReFrames : 4 frames Codec ID : V_MPEG4/ISO/AVC Duration : 2 h 10 min Nominal bit rate : 1 100 kb/s Width : 1 280 pixels Height : 542 pixels Display aspect ratio : 2.35:1 Frame rate mode : Constant Frame rate : 23.976 (24000/1001) FPS Color space : YUV Chroma subsampling : 4:2:0 Bit depth : 8 bits Scan type : Progressive Audio ID : 2 Format : AAC Format/Info : Advanced Audio Codec Format profile : HE-AAC / LC Codec ID : A_AAC Duration : 2 h 10 min Channel(s) : 6 channels Channel positions : Front: L C R, Side: L R, LFE Sampling rate : 48.0 kHz / 24.0 kHz Frame rate : 23.438 FPS (1024 spf) Compression mode : Lossy Text ID : 3 Format : UTF-8 Codec ID : S_TEXT/UTF8 Codec ID/Info : UTF-8 Plain Text Title : Downloadhub.Net Default : Yes [Source: DDR] Sample Including In Torrent Wajah Tum Ho (2016) Hindi 720p HDRip x264 AAC 5.1 ESubs - Downloadhub.torrent
  24. Format : AVC Format/Info : Advanced Video Codec Format profile : [email protected] Format settings, CABAC : Yes Format settings, ReFrames : 8 frames Codec ID : V_MPEG4/ISO/AVC Duration : 1 h 34 min Bit rate : 1 086 kb/s Width : 1 280 pixels Height : 536 pixels Display aspect ratio : 2.40:1 Frame rate mode : Constant Frame rate : 25.000 FPS Color space : YUV Chroma subsampling : 4:2:0 Bit depth : 8 bits Scan type : Progressive Audio #1 ID : 2 Format : AAC Format/Info : Advanced Audio Codec Format profile : HE-AAC / LC Codec ID : A_AAC Duration : 1 h 34 min Bit rate : 192 kb/s Channel(s) : 6 channels Channel positions : Front: L C R, Side: L R, LFE Sampling rate : 48.0 kHz / 24.0 kHz Frame rate : 23.438 FPS (1024 spf) Compression mode : Lossy Language : Hindi Default : Yes Forced : No Audio #2 ID : 3 Format : AAC Format/Info : Advanced Audio Codec Format profile : LC Codec ID : A_AAC Duration : 1 h 34 min Bit rate : 126 kb/s Channel(s) : 6 channels Channel positions : Front: L C R, Side: L R, LFE Sampling rate : 48.0 kHz Frame rate : 46.875 FPS (1024 spf) Compression mode : Lossy Language : English Default : No Forced : No Text ID : 4 Format : UTF-8 Codec ID : S_TEXT/UTF8 Codec ID/Info : UTF-8 Plain Text Duration : 1 h 26 min Bit rate : 31 b/s Default : Yes Forced : No Menu 00:00:00.000 : en:Chapter 1 00:06:34.936 : en:Chapter 2 00:11:51.336 : en:Chapter 3 00:18:31.277 : en:Chapter 4 00:26:04.897 : en:Chapter 5 00:31:57.540 : en:Chapter 6 00:38:31.267 : en:Chapter 7 00:43:35.696 : en:Chapter 8 00:49:23.210 : en:Chapter 9 00:54:20.382 : en:Chapter 10 01:00:09.856 : en:Chapter 11 01:05:50.446 : en:Chapter 12 01:10:25.429 : en:Chapter 13 01:14:52.363 : en:Chapter 14 01:21:04.860 : en:Chapter 15 01:31:38.785 : en:Chapter 16 [Source: 1080p @ GPSOFT] Sample Including In Torrent Mechanic Resurrection (2016) 720p BluRay x264 [Dual-Audio][Hindi 5.1 - English 5.1] ESubs - Downloadhub.torrent
  25. Sample http://rapidgator.net/file/ddbc911b14eda776a03311511845a82f/Wajah_Tum_Ho_(2016)_-_WebRip_-_X264_-_5.1CH_-_ESubs_-_1CD_[Team_Jaffa].mkv.html http://nitroflare.com/view/C1B34C0F8A14C71/Wajah_Tum_Ho_(2016)_-_WebRip_-_X264_-_5.1CH_-_ESubs_-_1CD__Team_Jaffa_.mkv https://openload.co/f/HO55WMp3O6A/Wajah_Tum_Ho_%282016%29_-_WebRip_-_X264_-_5.1CH_-_ESubs_-_1CD_%5BTeam_Jaffa%5D.mkv