Search the Community

Showing results for tags 'esub'.

  • Search By Tags

    Type tags separated by commas.
  • Search By Author

Content Type


Forums

  • General Lounge
    • Announcements and Updates
    • Member Introductions
    • Help & FAQ
    • Post your Movie Requests
    • Ethical Hacking Tricks and Internet Tricks
  • Free Online Movies
    • HollyWood Movies
    • BollyWood Movies
    • Malayalam Movies
    • Tamil Movies
    • Telugu Movies
    • Other Movies
  • TV Shows
    • English TV Shows
  • Ebooks
    • Tips ,Tutorials and E-Books
  • Adult Section
    • XXX HD Videos
    • XXX Adult Movies
    • XXX VIDEOS
    • XXX PICTURES
    • XXX STORIES
    • XXX Comics and Magazine
  • Music Database
    • English Albums
    • English Collections
  • Premium Accounts And Premium Browser
    • Premium Account And Premium Browser
    • Free 18+ Site Premium Accounts
  • Games & SoftWare
    • PC Games
    • PC Softwares
    • Mac OSX Applications
  • Mobile Zone
    • Android Applications
    • Android Games
    • Android Themes / Live Wallpapers
    • Iphone Applications
  • Gallery
    • Actress Gallery
    • HD Wallpapers
  • WebMaster Source
    • Vbulletin
    • Wordpress
    • Invision Power Board
    • PHP / HTML scripts

Categories

  • Records

Calendars

  • Community Calendar

Categories

  • Files

Categories

  • Videos
  • Movies

Found 23 results

  1. http://rapidgator.net/file/b2302f829177baeae6473f75aed92337/Wajah_Tum_Ho_(2016)_DVDRIP_1CDRIP_x264_AAC_2.0_ESub_[DDR].mkv.html http://nitroflare.com/view/5652BE56BE04136/Wajah_Tum_Ho_(2016)_DVDRIP_1CDRIP_x264_AAC_2.0_ESub__DDR_.mkv https://openload.co/f/AzEtygINe00/Wajah_Tum_Ho_%282016%29_DVDRIP_1CDRIP_x264_AAC_2.0_ESub_%5BDDR%5D.mkv
  2. General Format : MPEG-4 Format profile : Base Media File size : 6.76 GiB Duration : 2 h 37 min Overall bit rate mode : Variable Overall bit rate : 6 132 kb/s Writing application : Lavf56.15.102 Video ID : 1 Format : AVC Format/Info : Advanced Video Codec Format profile : [email protected] Format settings, CABAC : Yes Format settings, ReFrames : 1 frame Format settings, GOP : M=1, N=25 Codec ID : avc1 Codec ID/Info : Advanced Video Coding Duration : 2 h 37 min Bit rate mode : Constant Bit rate : 6 000 kb/s Width : 1 920 pixels Height : 1 080 pixels Display aspect ratio : 16:9 Frame rate mode : Constant Frame rate : 25.000 FPS Color space : YUV Chroma subsampling : 4:2:0 Bit depth : 8 bits Scan type : Progressive Bits/(Pixel*Frame) : 0.116 Stream size : 6.61 GiB (98%) Audio ID : 2 Format : AAC Format/Info : Advanced Audio Codec Format profile : LC Codec ID : 40 Duration : 2 h 37 min Bit rate mode : Variable Bit rate : 125 kb/s Maximum bit rate : 129 kb/s Channel(s) : 2 channels Channel positions : Front: L R Sampling rate : 48.0 kHz Frame rate : 46.875 FPS (1024 spf) Compression mode : Lossy Stream size : 142 MiB (2%) Default : Yes Alternate group : 1 http://nitroflare.com/view/15C388F9801AC8A/24_(2016)_1080p_Untouched_WEBHD_AVC_AAC_ESub__DDR_.mp4 Subs: http://nitroflare.com/view/12DC82276364CB5/English.srt
  3. General Format : MPEG-4 Format profile : Base Media File size : 2.35 GiB Duration : 2 h 37 min Overall bit rate mode : Variable Overall bit rate : 2 130 kb/s Writing application : Lavf56.15.102 Video ID : 1 Format : AVC Format/Info : Advanced Video Codec Format profile : [email protected] Format settings, CABAC : Yes Format settings, ReFrames : 1 frame Format settings, GOP : M=1, N=25 Codec ID : avc1 Codec ID/Info : Advanced Video Coding Duration : 2 h 37 min Bit rate mode : Constant Bit rate : 2 000 kb/s Width : 1 280 pixels Height : 720 pixels Display aspect ratio : 16:9 Frame rate mode : Constant Frame rate : 25.000 FPS Color space : YUV Chroma subsampling : 4:2:0 Bit depth : 8 bits Scan type : Progressive Bits/(Pixel*Frame) : 0.087 Stream size : 2.21 GiB (94%) Audio ID : 2 Format : AAC Format/Info : Advanced Audio Codec Format profile : LC Codec ID : 40 Duration : 2 h 37 min Bit rate mode : Variable Bit rate : 125 kb/s Maximum bit rate : 129 kb/s Channel(s) : 2 channels Channel positions : Front: L R Sampling rate : 48.0 kHz Frame rate : 46.875 FPS (1024 spf) Compression mode : Lossy Stream size : 142 MiB (6%) Default : Yes Alternate group : 1 http://rapidgator.net/file/2f6f45a343f7ff7112211fe8d3e55808/24_(2016)_720p_Untouched_WEBHD_AVC_AAC_[DDR].mp4.html Subs: http://rapidgator.net/file/805e27f73d9c854cfa1f5f3c92475ee5/English.srt.html http://nitroflare.com/view/122989E2E17B0B5/24_(2016)_720p_Untouched_WEBHD_AVC_AAC__DDR_.mp4 Subs: http://nitroflare.com/view/38D2E6C986D3C24/English.srt
  4. Veerappan (2016) 720p Untouched WEBHD AVC AAC ESub [DDR Exclusive] SPECS SAMPLE Included A DDR Exclusive Encode Download Links Watch Online ~Extreme Seeding Started~ Please click 'Thanks' as a token of appreciation of our effort.
  5. General File size : 3.39 GiB Duration : 1 h 57 min Overall bit rate : 4 116 kb/s Video: Format : AVC Format/Info : Advanced Video Codec Bit rate : 3 986 kb/s Width : 1 920 pixels Height : 820 pixels Display aspect ratio : 2.35:1 Frame rate mode : Variable Frame rate : 25.000 FPS Minimum frame rate : 0.240 FPS Maximum frame rate : 25.000 FPS Audio: Format : AAC Format/Info : Advanced Audio Codec Bit rate mode : Constant Bit rate : 128 kb/s Channel(s) : 2 channels Channel positions : Front: L R Sampling rate : 44.1 kHz http://rapidgator.net/file/796b8c234e622f00e57699a92469248b/Veerappan_(2016)_1080p_Untouched_WEBHD_AVC_AAC_ESub_[DDR_Exclusive].mp4.html Subs: http://rapidgator.net/file/fb3e7405ac3e196fced070f3efb0dedb/English.srt.html http://nitroflare.com/view/0CD0E4486820739/Veerappan_(2016)_1080p_Untouched_WEBHD_AVC_AAC_ESub__DDR_Exclusive_.mp4 Subs: http://nitroflare.com/view/3B425D8321C73CF/English.srt
  6. http://rapidgator.net/file/4e90b3509a777e24bc410a1e0f39f32c/Chennai_600028_II_2nd_Innings_(2016)_Tamil_WEB-HD_-_1080p_-_AVC_-_DD5.1_-_4.5GB_-_ESub_[HT].mp4.html http://nitroflare.com/view/A610F618FB477DA/Chennai_600028_II_2nd_Innings_(2016)_Tamil_WEB-HD_-_1080p_-_AVC_-_DD5.1_-_4.5GB_-_ESub__HT_.mp4
  7. http://rapidgator.net/file/d55e94ce7ff2c85692fe4e385597fbb6/Chennai_600028_II_2nd_Innings_(2016)_Tamil_WEB-HD_-_720p_-_AVC_-_DD5.1_-_2.3GB_-_ESub_[HT].mp4.html http://nitroflare.com/view/8B78F5F8705086F/Chennai_600028_II_2nd_Innings_(2016)_Tamil_WEB-HD_-_720p_-_AVC_-_DD5.1_-_2.3GB_-_ESub__HT_.mp4
  8. Specs: Source : Primevideo @ DDR Ripper : MaNuDiL Format : Matroska/MKV File size : 3.22 GiB Duration : 02h 04mn 53sec Overall bit rate : 3 690 kb/s Video: Format : x264/AVC ReFrames : 8 frames Bit rate : 3 304 kb/s Width : 1 280 pixels Height : 544 pixels Display aspect ratio : 2.35:1 Frame rate : 25.000 FPS Audio: Format : AC-3 Format/Info : Audio Coding 3 Channel(s) : 6 channels Bit rate : 384 Kbps Channel positions : Front: L C R, Side: L R, LFE Sampling rate : 48.0 KHz Language : Telugu Chapters : N/A Subtitle(s) : English -srt (muxed) http://rapidgator.net/file/7adf961d2aff608179fed87939c96769/Siddhartha_(2016)_-_720p_-_WEBRip_-_x264_-_AC3_-_ESub_-_[DDR].mkv.html http://nitroflare.com/view/BF190651CA697FA/Siddhartha_(2016)_-_720p_-_WEBRip_-_x264_-_AC3_-_ESub_-__DDR_.mkv https://openload.co/f/81gZtQtqCso/Siddhartha_%282016%29_-_720p_-_WEBRip_-_x264_-_AC3_-_ESub_-_%5BDDR%5D.mkv
  9. Source: Retail DVD 9 / DrC Format : Matroska File size : 698 MB Duration : 2h 17mn Format/Info : Advanced Video Codec Format profile : [email protected] Codec ID : V_MPEG4/ISO/AVC Bit rate : 611 Kbps Maximum bit rate : 40.0 Mbps Width : 640 pixels Height : 272 pixels Display aspect ratio : 2.35:1 Frame rate mode : Constant Frame rate : 23.976 fps Bit depth : 8 bits D : 2 Format : AAC Format/Info : Advanced Audio Codec Format profile : LC Codec ID : A_AAC Bit rate : 96.0 Kbps Channel(s) : 2 channels Channel positions : Front: L R Sampling rate : 48.0 KHz http://rapidgator.net/file/6de9d5464bebc889d70e87ac66731b11/Kavi_Udeshichathu_(2016)_DVDrip_-_1CD_-_x264_-_AAC_-_Esub_-_Chaps_-_DrC_Release.mkv.html http://nitroflare.com/view/E292F456B1BAB02/Kavi_Udeshichathu_(2016)_DVDrip_-_1CD_-_x264_-_AAC_-_Esub_-_Chaps_-_DrC_Release.mkv https://openload.co/f/RM27FSpWlWY/Kavi_Udeshichathu_%282016%29_DVDrip_-_1CD_-_x264_-_AAC_-_Esub_-_Chaps_-_DrC_Release.mkv
  10. Kavi Udeshichathu (2016) Download Malayalam Movie DVDrip - 1CD - x264 - AAC - Esub - Chaps - DrC Release Kavi Udeshichathu 2016 - 1CD - DVDrip - x264 - AAC - Esub - Chapters Screens Download Links Watch online ~Extreme Seeding Started~Please click 'Thanks' as a token of appreciation of our effort. [ZippyMovieZ.CH] Kavi Udeshichathu (2016) Malayalam DVDrip - 1CD - x264 - AAC - Esub - Chaps - DrC Release.torrent Magnet Link
  11. Dear Zindagi (2016) Download Hindi Movie DVDRIP 1CDRIP x264 AAC ESub 700MB [DDR] **Dear Zindagi (2016)** **Bollywood** DVDRIP - 1CDRIP ~ x264 AAC ~ English Subtitles Sample Included ***Patience is Virtue*** ~Extreme Seeding Started~Please click 'Thanks' as a token of appreciation of our effort. . Dear Zindagi (2016) Hindi DVDRIP 1CDRIP x264 AAC ESub 700MB [DDR].torrent Magnet Link
  12. http://rapidgator.net/file/2285c7bcdd47d2bb19ac97d9792fac0f/AYM_(2016)_Tamil_WEB-HD_-_1080p_-_AVC_-_DD5.1_-_4.1GB_-_ESub_[HT].mp4.html Subs: http://rapidgator.net/file/379a4cb46133f21f4b9c18e42015e461/ESubs.srt.html
  13. http://rapidgator.net/file/baff87874e59b4991da5461a1eae3892/AYM_(2016)_Tamil_WEB-HD_-_720p_-_AVC_-_DD5.1_-_2.1GB_-_ESub_[HT].mp4.html Subs: http://rapidgator.net/file/379a4cb46133f21f4b9c18e42015e461/ESubs.srt.html http://nitroflare.com/view/DD24979259A074A/AYM_(2016)_Tamil_WEB-HD_-_720p_-_AVC_-_DD5.1_-_2.1GB_-_ESub__HT_.mp4 Subs: http://nitroflare.com/view/6089CEC0AA5B72D/ESubs.srt
  14. http://www.imdb.com/title/tt5946128/ Source : DVD9 @ DDR Ripper : MaNuDiL Format : Matroska/MKV File size : 3.63 GiB Duration : 02h 30mn 01sec Overall bit rate : 3 463 kb/s Video: Format : x264/AVC ReFrames : 12 frames Bit rate : 3 000 kb/s Width : 1 280 pixels Height : 544 pixels Display aspect ratio : 2.35:1 Frame rate : 23.976 fps Audio: Format : AC-3 Format/Info : Audio Coding 3 Channel(s) : 6 channels Bit rate : 448 Kbps Channel positions : Front: L C R, Side: L R, LFE Sampling rate : 48.0 KHz Language : Hindi Chapters : Yes (muxed) Subtitle(s) : English -srt (muxed) Single Link http://www.heroupload.com/6ae7fdcc898d1fa6/Dear.Zindagi.2016.720p.DVDRip.x264.AC3.ESub-DDR.mkv http://www.heroupload.com/45624b1a82cf9d4b/Dear.Zindagi.2016.720p.DVDRip.x264.AC3.ESub-DDR.srt http://rapidgator.net/file/0514ec1d45d526244df3bdf513b56c02/Dear.Zindagi.2016.720p.DVDRip.x264.AC3.ESub-DDR.mkv.html http://rapidgator.net/file/e542dd69322245adbb41b4e6a6158673/Dear.Zindagi.2016.720p.DVDRip.x264.AC3.ESub-DDR.srt.html 1GB Link http://www.heroupload.com/4ace4b591c8824dc/Dear.Zindagi.2016.720p.DVDRip.x264.AC3.ESub-DDR.part1.rar http://www.heroupload.com/95aa04070f2c5584/Dear.Zindagi.2016.720p.DVDRip.x264.AC3.ESub-DDR.part2.rar http://www.heroupload.com/a7fefaf7c69868de/Dear.Zindagi.2016.720p.DVDRip.x264.AC3.ESub-DDR.part3.rar http://www.heroupload.com/9b654ca8aa5057f5/Dear.Zindagi.2016.720p.DVDRip.x264.AC3.ESub-DDR.part4.rar http://rapidgator.net/file/57a3570098af093397bfb15923aa78e4/Dear.Zindagi.2016.720p.DVDRip.x264.AC3.ESub-DDR.part1.rar.html http://rapidgator.net/file/471c485ff4e40509695b86a26349ff98/Dear.Zindagi.2016.720p.DVDRip.x264.AC3.ESub-DDR.part2.rar.html http://rapidgator.net/file/16f00ce31119872652d7bd99da0029ae/Dear.Zindagi.2016.720p.DVDRip.x264.AC3.ESub-DDR.part3.rar.html http://rapidgator.net/file/2815653843925dfedc1828798b8583e9/Dear.Zindagi.2016.720p.DVDRip.x264.AC3.ESub-DDR.part4.rar.html Kindly Say "THANKS" To Support My Work
  15. http://www.imdb.com/title/tt5946128/ Source: DVD9 @ Hideman08 Format : Matroska File size : 1.47 GiB Duration : 2 h 30 min Overall bit rate : 1 405 kb/s Video Format : AVC Format/Info : Advanced Video Codec Format profile : [email protected] Format settings, CABAC : Yes Format settings, ReFrames : 16 frames Codec ID : V_MPEG4/ISO/AVC Duration : 2 h 30 min Bit rate : 1 137 kb/s Width : 720 pixels Height : 304 pixels Display aspect ratio : 2.35:1 Frame rate mode : Constant Frame rate : 23.976 (24000/1001) FPS Color space : YUV Chroma subsampling : 4:2:0 Bit depth : 8 bits Scan type : Progressive Bits/(Pixel*Frame) : 0.217 Stream size : 1.20 GiB (82%) Default : Yes Forced : No Color range : Limited Color primaries : BT.601 NTSC Transfer characteristics : BT.470 System B, BT.470 System G Matrix coefficients : BT.601 Audio Format : AC-3 Format/Info : Audio Coding 3 Mode extension : CM (complete main) Format settings, Endianness : Big Codec ID : A_AC3 Duration : 2 h 30 min Bit rate mode : Constant Bit rate : 256 kb/s Channel(s) : 6 channels Channel positions : Front: L C R, Side: L R, LFE Sampling rate : 48.0 kHz Frame rate : 31.250 FPS (1536 spf) Compression mode : Lossy Stream size : 275 MiB (18%) Language : Hindi Default : Yes Forced : No Chapters = YES http://www.heroupload.com/ee6703b7c53230ba/Dear.Zindagi.2016.x264.DVDRIP.AC3.5.1.ESub-DDR.mkv http://rapidgator.net/file/59fb2cb366cfceeb8d8abb810a31b377/Dear.Zindagi.2016.x264.DVDRIP.AC3.5.1.ESub-DDR.mkv.html Kindly Say "THANKS" To Support My Work
  16. http://www.imdb.com/title/tt5946128/ Year.............: 2016 Ripper...........: Apka Sallu Source...........: Hideman8 ka warehouse (Thanks Boys You Rock) Container........: MKV Resolution.......: 640 x 272 Overall Bitrate..: 647 Kbps Audio Language...: Hindi Run Time.........: 02hrs 30Mnts and few seconds Audio............: MP3 @ 64 Kbps Subtitle.........: English Frame rate.......: 23.976 fps http://www.heroupload.com/a4c601d55668174a/Dear.Zindagi.2016.1CD.DvDRip.x264.MP3.ESub-DUS.mkv http://rapidgator.net/file/fbda1ea0f970bd8f82a0a64431167170/Dear.Zindagi.2016.1CD.DvDRip.x264.MP3.ESub-DUS.mkv.html Kindly Say "THANKS" To Support My Work
  17. http://www.imdb.com/title/tt5946128/ Year.............: 2016 Ripper...........: Apka Sallu Source...........: Hideman8 ka warehouse (Thanks Boys You Rock) Container........: MKV Resolution.......: 1288 x 544 Overall Bitrate..: 2860 Kbps Audio Language...: Hindi Run Time.........: 02hrs 30Mnts and few seconds Audio............: AC3 5.1 (Untouched) Subtitle.........: English Frame rate.......: 23.976 fps Single Link http://www.heroupload.com/a1f68e13194afc21/Dear.Zindagi.2016.720p.DvDRip.x264.AC3.5.1.Untouched.ESub-DUS.mkv 1GB Link http://www.heroupload.com/7f7b8119361a897d/Dear.Zindagi.2016.720p.DvDRip.x264.AC3.5.1.Untouched.ESub-DUS.part1.rar http://www.heroupload.com/59a1feaa543cb69c/Dear.Zindagi.2016.720p.DvDRip.x264.AC3.5.1.Untouched.ESub-DUS.part2.rar http://www.heroupload.com/a909b7af39a477b3/Dear.Zindagi.2016.720p.DvDRip.x264.AC3.5.1.Untouched.ESub-DUS.part3.rar http://rapidgator.net/file/91bfb68548fc09eda2e9bbfed0d52dab/Dear.Zindagi.2016.720p.DvDRip.x264.AC3.5.1.Untouched.ESub-DUS.part1.rar.html http://rapidgator.net/file/983c4238b8772082d22e6b303fbfc719/Dear.Zindagi.2016.720p.DvDRip.x264.AC3.5.1.Untouched.ESub-DUS.part2.rar.html http://rapidgator.net/file/6a10d65586e203f5eb57685963aa2781/Dear.Zindagi.2016.720p.DvDRip.x264.AC3.5.1.Untouched.ESub-DUS.part3.rar.html Kindly Say "THANKS" To Support My Work
  18. http://www.imdb.com/title/tt5946128/ Year.............: 2016 Ripper...........: Apka Sallu Source...........: Hideman8 ka warehouse (Thanks Boys You Rock) Container........: MKV Resolution.......: 720 x 304 Overall Bitrate..: 1396 Kbps Audio Language...: Hindi Run Time.........: 02hrs 30Mnts and few seconds Audio............: AC3 5.1 (Untouched) Subtitle.........: English Frame rate.......: 23.976 fps http://www.heroupload.com/b2fef87846bb185f/Dear.Zindagi.2016.1-3.DvDRip.x264.AC3.5.1.Untouched.ESub-DUS.mkv http://rapidgator.net/file/a776d7041be222ff04aa29999a1f8cf2/Dear.Zindagi.2016.1-3.DvDRip.x264.AC3.5.1.Untouched.ESub-DUS.mkv.html Kindly Say "THANKS" To Support My Work
  19. http://www.imdb.com/title/tt5946128/ Source : DVD9 @ hideman8 Ripper : rav3n Specs Format : Matroska File size : 698 MiB Duration : 2 h 30 min Overall bit rate mode : Variable Overall bit rate : 651 kb/s Video Format : AVC Format/Info : Advanced Video Codec Bit rate mode : Variable Bit rate : 599 kb/s Maximum bit rate : 62.5 Mb/s Width : 640 pixels Height : 272 pixels Display aspect ratio : 2.35:1 Frame rate mode : Constant Frame rate : 23.976 (24000/1001) FPS Audio Format : AAC Format/Info : Advanced Audio Codec Bit rate : 48.0 kb/s Channel(s) : 2 channels Channel positions : Front: L R Sampling rate : 48.0 kHz Language : Hindi Chapters : Yes Subtitles : English http://www.heroupload.com/599a4d93665d99a3/Dear.Zindagi.2016.DVDRIP.1CDRIP.x264.AAC.ESub-DDR.mkv http://rapidgator.net/file/d40f9dc6a29e2fa2b59732f0b2615c73/Dear.Zindagi.2016.DVDRIP.1CDRIP.x264.AAC.ESub-DDR.mkv.html Kindly Say "THANKS" To Support My Work
  20. http://www.imdb.com/title/tt5946128/ Cast.............: Alia Bhatt, Shah Rukh Khan, Kunal Kapoor Video............: x264 / 568 Kbps / 23.976 fps / 672X288 Audio ...........: MP3 / 80 Kbps / 02channels / Hindi Total............: 2h 30mn / 695MB Subtitle.........: Yes (eng) Source...........: DVD9 @ M2Tv Ripper...........: Black_Diamond http://www.heroupload.com/42ae42fb69f8e677/Dear.Zindagi.2016.1CD.DvDRip.x264.MP3.ESub-M2Tv.ExclusivE.mkv http://rapidgator.net/file/98f6c526d0f88c4dbcfc4e339c06c3f5/Dear.Zindagi.2016.1CD.DvDRip.x264.MP3.ESub-M2Tv.ExclusivE.mkv.html Kindly Say "THANKS" To Support My Work
  21. Specs: Source : DVD9 @ DDR Ripper : MaNuDiL Format : Matroska/MKV File size : 3.63 GiB Duration : 02h 30mn 01sec Overall bit rate : 3 463 kb/s Video: Format : x264/AVC ReFrames : 12 frames Bit rate : 3 000 kb/s Width : 1 280 pixels Height : 544 pixels Display aspect ratio : 2.35:1 Frame rate : 23.976 fps Audio: Format : AC-3 Format/Info : Audio Coding 3 Channel(s) : 6 channels Bit rate : 448 Kbps Channel positions : Front: L C R, Side: L R, LFE Sampling rate : 48.0 KHz Language : Hindi Chapters : Yes (muxed) Subtitle(s) : English -srt (muxed) http://rapidgator.net/file/701937bd8f2b13ffdbb063b975e0d8ca/Dear_Zindagi_(2016)_-_720p_-_DVDRip_-_x264_-_AC3_-_ESub_-_[DDR].mkv.html Subs: http://rapidgator.net/file/b7e0ecfd11396df75a3496c80ec37e80/Dear_Zindagi_(2016)_-_720p_-_DVDRip_-_x264_-_AC3_-_ESub_-_[DDR].srt.html http://nitroflare.com/view/BFD36F147232745/Dear_Zindagi_(2016)_-_720p_-_DVDRip_-_x264_-_AC3_-_ESub_-__DDR_.mkv Subs: http://nitroflare.com/view/F23F2126D9336A9/Dear_Zindagi_(2016)_-_720p_-_DVDRip_-_x264_-_AC3_-_ESub_-__DDR_.srt
  22. Source: Retail DVD 9 / DrC Format : Matroska File size : 3.95 GB Duration : 2h 27mn Format/Info : Advanced Video Codec Format profile : [email protected] Codec ID : V_MPEG4/ISO/AVC Bit rate : 3077 Kbps Maximum bit rate : 40.0 Mbps Width : 1 920 pixels Height : 816 pixels Display aspect ratio : 2.35:1 Frame rate mode : Constant Frame rate : 23.976 fps Bit depth : 8 bits Format : DTS Format/Info : Digital Theater Systems Mode : 16 Format settings, Endianness : Big Codec ID : A_DTS Bit rate mode : Constant Bit rate : 755 Kbps Channel(s) : 6 channels Channel positions : Front: L C R, Side: L R, LFE Sampling rate : 48.0 KHz http://rapidgator.net/file/d75e9f06bd2fa5a74ed4c7814ea3227b/Kochavva_Paulo_Ayyappa_Coelho_(2016)_DVDRip_-__1080p_Upscaled_-_x264_-_DTS_-_Esub_-_Chaps_-_DrC_Release.mkv.html http://nitroflare.com/view/C7C738B80E7295A/Kochavva_Paulo_Ayyappa_Coelho_(2016)_DVDRip_-__1080p_Upscaled_-_x264_-_DTS_-_Esub_-_Chaps_-_DrC_Release.mkv